<?xml version="1.0" standalone="no"?>
<!DOCTYPE svg PUBLIC "-//W3C//DTD SVG 1.1//EN" "http://www.w3.org/Graphics/SVG/1.1/DTD/svg11.dtd" >
<svg xmlns="http://www.w3.org/2000/svg">
<metadata>Generated by IcoMoon</metadata>
<defs>
<font id="iconfont" horiz-adv-x="1024">
<font-face units-per-em="1024" ascent="1024" descent="0" />
<missing-glyph horiz-adv-x="1024" />
<glyph unicode="&#x20;" horiz-adv-x="0" d="" />
<glyph unicode="&#xe900;" glyph-name="arrow_forward" horiz-adv-x="956" d="M477.867 46.933l-92.445 91.020 304.358 304.358h-672.713v130.844h672.713l-304.358 304.356 92.445 91.022 460.8-460.8-460.8-460.8z" />
<glyph unicode="&#xf101;" glyph-name="arrow-down" d="M8.2 748.6c0 8.6 3.4 17.401 10 24.001 13.2 13.2 34.8 13.2 48 0l451.8-451.8 445.2 445.2c13.2 13.2 34.8 13.2 48 0s13.2-34.8 0-48l-469.2-469.4c-13.2-13.2-34.8-13.2-48 0l-475.8 475.8c-6.8 6.8-10 15.399-10 24.199z" />
<glyph unicode="&#xf102;" glyph-name="arrow-left" d="M752.145 1024c8.685 0 17.572-3.434 24.237-10.099 13.33-13.33 13.33-35.144 0-48.474l-456.256-456.458 449.591-449.591c13.33-13.33 13.33-35.144 0-48.474s-35.143-13.33-48.473 0l-473.827 473.827c-13.33 13.33-13.33 35.144 0 48.474l480.492 480.694c6.665 6.665 15.552 10.099 24.236 10.099z" />
<glyph unicode="&#xf103;" glyph-name="arrow-right" d="M271.653 0.808c-8.685 0-17.573 3.433-24.238 10.098-13.33 13.33-13.33 35.144 0 48.474l456.256 456.458-449.591 449.591c-13.33 13.33-13.33 35.144 0 48.474s35.144 13.33 48.474 0l473.827-473.827c13.33-13.33 13.33-35.143 0-48.473l-480.492-480.694c-6.665-6.665-15.552-10.099-24.236-10.099z" />
<glyph unicode="&#xf104;" glyph-name="arrow-up" d="M8.2 272.6c0-8.6 3.4-17.401 10-24.001 13.2-13.2 34.8-13.2 48 0l451.8 451.8 445.2-445.2c13.2-13.2 34.8-13.2 48 0s13.2 34.8 0 48l-469.2 469.4c-13.2 13.2-34.8 13.2-48 0l-475.8-475.8c-6.8-6.8-10-15.399-10-24.199z" />
<glyph unicode="&#xf105;" glyph-name="book-open" d="M952.080 1022.448l-423.041-114.592c-10.752-2.88-34.096-2.848-44.815 0.16l-412.144 114.208c-36.784 10.128-72.416-16.4-72.416-54.273v-778.112c0-32.096 24.336-62.784 55.312-71.408l412.16-114.224c11.024-3.056 25.217-4.752 39.937-4.752 10.096 0 25.008 0.784 38.72 4.528l423.024 114.592c31.056 8.4 55.504 39.024 55.504 71.248v778.128c0.016 37.84-35.616 64.464-72.24 54.496zM479.999 67.057l-408.928 113.056c-3.088 0.848-7.408 6.496-7.408 9.712v768.032l403.472-111.536c3.904-1.088 8.288-1.936 12.864-2.655v-776.608zM960.335 189.824c0-3.152-5.184-8.655-8.256-9.503l-408.080-110.528v775.92c0.592 0.144 1.2 0.224 1.792 0.384l414.528 112.128v-768.4h0.016zM641.999 657.697c2.88 0 5.81 0.367 8.689 1.184l223.936 63.024c17.024 4.816 26.944 22.465 22.16 39.473s-22.561 26.88-39.473 22.16l-223.936-63.024c-17.024-4.816-26.944-22.465-22.16-39.473 3.968-14.128 16.815-23.344 30.783-23.344zM642.001 465.696c2.88 0 5.81 0.368 8.689 1.185l223.936 63.024c17.024 4.816 26.944 22.465 22.16 39.473s-22.561 26.88-39.473 22.16l-223.936-63.024c-17.024-4.816-26.944-22.465-22.16-39.457 3.968-14.128 16.815-23.36 30.783-23.361zM642.003 273.696c2.88 0 5.81 0.368 8.689 1.185l223.936 63.024c17.024 4.816 26.944 22.465 22.16 39.473s-22.561 26.88-39.473 22.16l-223.936-63.024c-17.024-4.816-26.944-22.465-22.16-39.473 3.968-14.112 16.815-23.345 30.783-23.345zM394.629 720.513l-223.934 63.025c-16.912 4.72-34.689-5.152-39.473-22.16s5.12-34.656 22.16-39.473l223.936-63.024c2.88-0.816 5.808-1.185 8.688-1.185 13.968 0 26.815 9.216 30.783 23.344 4.784 16.992-5.12 34.656-22.16 39.473zM394.631 528.514l-223.934 63.025c-16.912 4.72-34.689-5.152-39.473-22.16s5.12-34.656 22.16-39.473l223.936-63.024c2.88-0.816 5.808-1.185 8.688-1.185 13.968 0 26.815 9.216 30.783 23.344 4.784 16.992-5.12 34.656-22.16 39.473zM394.633 336.515l-223.934 63.025c-16.912 4.72-34.689-5.152-39.473-22.16s5.12-34.656 22.16-39.473l223.936-63.024c2.88-0.816 5.808-1.185 8.688-1.185 13.968 0 26.815 9.216 30.783 23.344 4.784 17.008-5.12 34.656-22.16 39.473z" />
<glyph unicode="&#xf106;" glyph-name="calculator" d="M960 1024.096h-896c-35.184 0-64-28.816-64-64v-896.192c0-35.184 28.816-64 64-64h896c35.184 0 64 28.816 64 64v896.192c0 35.184-28.816 64-64 64zM960 63.903h-896v896.192h896v-896.192zM224 671.695h64v-64c0-17.664 14.336-32 32-32s32 14.336 32 32v64h64c17.664 0 32 14.336 32 32s-14.336 32-32 32h-64v64c0 17.664-14.336 32-32 32s-32-14.336-32-32v-64h-64c-17.664 0-32-14.336-32-32s14.336-32 32-32zM433.136 432.848c-12.496 12.496-32.752 12.497-45.248 0.001l-67.888-67.872-67.888 67.872c-12.496 12.496-32.752 12.496-45.264 0-12.496-12.496-12.496-32.769 0-45.265l67.872-67.872-67.872-67.872c-12.496-12.496-12.496-32.769 0-45.265s32.752-12.496 45.264 0l67.888 67.856 67.888-67.872c12.496-12.496 32.752-12.496 45.248 0s12.496 32.769 0 45.265l-67.872 67.872 67.872 67.872c12.496 12.512 12.496 32.768 0 45.279zM608 671.696h192c17.664 0 32 14.336 32 32s-14.336 32-32 32h-192c-17.664 0-32-14.336-32-32s14.336-32 32-32zM608 351.696h192c17.664 0 32 14.336 32 32s-14.336 32-32 32h-192c-17.664 0-32-14.336-32-32s14.336-32 32-32zM608 223.696h192c17.664 0 32 14.336 32 32s-14.336 32-32 32h-192c-17.664 0-32-14.336-32-32s14.336-32 32-32z" />
<glyph unicode="&#xf107;" glyph-name="clients-area" horiz-adv-x="1776" d="M1586.009 400.074l-15.876 6.35c7.938 6.35 14.288 12.701 19.051 22.226 7.938 14.288 12.701 30.164 12.701 46.040v331.808c0 57.153-22.226 111.132-61.916 150.822-33.34 33.34-74.617 55.566-115.895 61.916l-26.989 4.763v-33.34l-30.164 30.164h-9.526c-57.153 0-111.132-22.226-150.822-61.916s-61.916-93.668-61.916-150.822v-331.808c0-15.876 4.763-31.752 12.701-46.040 4.763-7.938 11.113-15.876 19.051-22.226l-15.876-6.35c-114.307-31.752-190.512-96.843-190.512-165.11v-236.552h47.628v236.552c0 38.102 55.566 92.081 157.172 119.070l47.628 17.464v-9.526c0-85.73 58.741-160.347 144.471-180.986l6.35-1.588 6.35 1.588c85.73 20.639 144.471 95.256 144.471 180.986v9.526l47.628-17.464h1.588c101.606-26.989 157.172-82.555 157.172-119.070v-236.552h47.628v236.552c-1.588 66.679-77.792 133.358-192.099 163.522zM1476.465 363.56c0-61.916-41.278-115.895-103.194-133.358-60.329 17.464-103.194 71.442-103.194 133.358v26.989h1.588c14.288 4.763 25.402 14.288 33.34 25.402 7.938 12.701 12.701 25.402 12.701 41.278v50.803c15.876-7.938 34.927-11.113 55.566-11.113s38.102 4.763 55.566 11.113v-50.803c0-14.288 4.763-28.577 12.701-41.278s20.639-20.639 33.34-25.402h1.588v-26.989zM1555.845 474.691c0-7.938-1.588-14.288-6.35-20.639-3.175-6.35-9.526-11.113-15.876-14.288l-20.639-11.113-22.226 7.938c-4.763 1.588-7.938 4.763-11.113 9.526-3.175 3.175-4.763 7.938-4.763 12.701v84.143c41.278 44.453 63.504 114.307 63.504 184.161v31.752c0 14.288-6.35 28.577-15.876 39.69-11.113 11.113-23.814 15.876-39.69 15.876h-63.504c-47.628 0-87.318 39.69-87.318 87.318h-47.628c0-74.617 60.329-134.946 134.946-134.946h63.504c1.588 0 3.175 0 6.35-1.588 1.588-1.588 1.588-4.763 1.588-6.35v-31.752c0-73.029-31.752-182.574-119.070-182.574s-119.070 107.957-119.070 182.574c0 11.113 4.763 20.639 11.113 28.577 7.938 7.938 17.464 11.113 28.577 11.113v47.628c-23.814 0-44.453-9.526-61.916-25.402-15.876-15.876-25.402-38.102-25.402-61.916 0-69.854 22.226-139.709 63.504-184.161v-84.143c0-4.763-1.588-9.526-4.763-14.288s-6.35-6.35-11.113-7.938l-20.639-7.938-20.639 11.113c-6.35 3.175-12.701 7.938-15.876 14.288s-6.35 12.701-6.35 20.639v331.808c0 44.453 17.464 85.73 49.216 117.482 28.577 28.577 66.679 46.040 107.957 47.628l47.628-47.628h50.803v41.278c22.226-7.938 42.865-22.226 61.916-41.278 31.752-31.752 49.216-73.029 49.216-117.482v-331.808zM1082.741 131.771l14.288-26.989v-104.781h47.628v115.895l-19.051 36.515zM1601.885 115.895v-115.895h47.628v104.781l14.288 26.989-42.865 20.639zM1349.457 158.76h47.628v-31.752h-47.628v31.752zM1349.457 95.256h47.628v-31.752h-47.628v31.752zM682.667 408.012l-55.566 23.814c-4.763 9.526-11.113 19.051-19.051 26.989-14.288 14.288-31.752 22.226-50.803 23.814l-1.588 3.175v49.216c39.69 42.865 61.916 104.781 63.504 168.285l15.876 15.876v169.873c0 19.051-7.938 36.515-20.639 50.803-12.701 12.701-28.577 19.051-46.040 20.639-11.113 36.515-44.453 63.504-84.143 63.504h-23.814v-23.814c0-12.701-11.113-23.814-23.814-23.814h-63.504c-36.515 0-69.854-14.288-95.256-39.69s-39.69-58.741-39.69-95.256v-120.657l15.876-15.876c1.588-63.504 23.814-127.008 63.504-168.285v-49.216l-3.175-3.175c-19.051-3.175-36.515-11.113-50.803-23.814-7.938-7.938-14.288-17.464-19.051-26.989l-53.978-25.402c-120.657-33.34-190.512-88.905-190.512-153.997v-254.016h47.628v254.016c0 39.69 61.916 82.555 157.172 107.957l33.34 14.288v-98.431h125.42l49.216-49.216v-101.606h47.628v101.606l49.216 49.216h125.42v98.431l30.164-12.701 3.175-1.588c95.256-25.402 157.172-68.267 157.172-107.957v-254.016h47.628v254.016c0 65.091-69.854 120.657-190.512 153.997zM301.643 325.457h-15.876v71.442c0 11.113 4.763 20.639 11.113 28.577 1.588 1.588 3.175 3.175 4.763 3.175v-103.194zM285.767 841.426c0 23.814 9.526 44.453 25.402 61.916 15.876 15.876 38.102 25.402 61.916 25.402h63.504c30.164 0 53.978 17.464 65.091 42.865 12.701-6.35 22.226-19.051 22.226-34.927v-23.814h39.69c6.35 0 12.701-3.175 17.464-6.35 3.175-4.763 6.35-11.113 6.35-17.464v-111.132c0 14.288-6.35 28.577-15.876 39.69-11.113 11.113-23.814 15.876-39.69 15.876h-79.38c-12.701 0-23.814 11.113-23.814 23.814v23.814h-52.391l-31.752-47.628h-3.175c-14.288 0-28.577-6.35-39.69-15.876s-15.876-23.814-15.876-39.69v63.504zM523.907 325.457h-33.34l-53.978-53.978-53.978 53.978h-33.34v125.42l15.876 15.876v33.34c20.639-9.526 44.453-15.876 71.442-15.876s50.803 6.35 71.442 15.876v-33.34l15.876-15.876v-125.42zM436.589 531.845c-98.431 0-134.946 109.544-134.946 182.574v9.526l-15.876 15.876v6.35h47.628v31.752c0 1.588 0 3.175 1.588 6.35s4.763 1.588 6.35 1.588h28.577l22.226 33.34c12.701-20.639 34.927-33.34 60.329-33.34h79.38c1.588 0 3.175 0 6.35-1.588 1.588-1.588 1.588-4.763 1.588-6.35v-31.752h47.628v-6.35l-15.876-15.876v-9.526c0-73.029-36.515-182.574-134.946-182.574zM587.411 325.457h-15.876v103.194c1.588-1.588 3.175-1.588 4.763-3.175 7.938-7.938 11.113-17.464 11.113-28.577v-71.442zM357.209 166.698h31.752v-47.628h-31.752v47.628zM500.093 166.698h158.76v-47.628h-158.76v47.628zM114.307 115.895l12.701-26.989v-88.905h47.628v101.606l-19.051 36.515zM698.543 101.606v-101.606h47.628v88.905l12.701 26.989-41.278 22.226z" />
<glyph unicode="&#xf108;" glyph-name="clock" d="M512 1024c-282.768 0-512-229.232-512-512 0-282.784 229.232-512 512-512 282.784 0 512 229.216 512 512 0 282.768-229.216 512-512 512zM512 62.992c-247.024 0-448 201.984-448 449.009s200.976 448 448 448 448-200.976 448-448-200.976-449.009-448-449.009zM544 524.992v307.006c0 17.664-14.336 32-32 32s-32-14.336-32-32v-320c0-9.056 3.792-17.199 9.856-23.007 0.528-0.624 0.96-1.296 1.536-1.888l158.384-158.4c12.496-12.481 32.752-12.481 45.248 0 12.496 12.496 12.496 32.769 0 45.265z" />
<glyph unicode="&#xf109;" glyph-name="close" d="M129.702 20.485l-109.227 109.225 382.293 382.295-382.293 382.293 109.227 109.227 382.293-382.293 382.295 382.293 109.225-109.227-382.295-382.293 382.295-382.295-109.225-109.225-382.295 382.295-382.293-382.295z" />
<glyph unicode="&#xf10a;" glyph-name="credit-card" d="M928.144 848h-832.288c-53.024 0-96-42.976-96-96v-480c0-53.024 42.976-96 96-96h832.288c53.024 0 96 42.976 96 96v480c0 53.024-42.976 96-96 96zM95.856 784h832.288c17.664 0 32-14.336 32-32v-64h-896.288v64c0 17.664 14.352 32 32 32zM928.144 240h-832.288c-17.664 0-32 14.336-32 32v288h896.288v-288c0-17.664-14.352-32-32-32z" />
<glyph unicode="&#xf10b;" glyph-name="docs" d="M768 1024h-352c-35.344 0-64-28.656-64-64h352v-256h256v-512h-224v-64h224c35.344 0 64 28.656 64 64v575.984zM768 768v165.504l165.472-165.504h-165.472zM64 896c-35.344 0-64-28.656-64-64v-768c0-35.344 28.656-64 64-64h544c35.344 0 64 28.656 64 64v575.984l-256 256.016h-352zM608 64h-544v768h288v-256h256v-512zM416 640v165.504l165.472-165.504h-165.472z" />
<glyph unicode="&#xf10c;" glyph-name="energy" d="M595.344 959.28v0zM595.344 959.28l-72.207-379.377 261.584-0.88-356.064-514.304 72.208 417.376-261.568 0.912zM595.393 1023.279c-1.728 0-3.455-0.063-5.151-0.19-11.296-0.912-18.784-4.688-27.664-10.656-4.928-3.28-9.439-7.28-13.392-11.937-1.168-1.376-2.272-2.816-3.297-4.288l-358.608-474.608c-14.16-19.408-16.24-45.024-5.36-66.433 10.864-21.408 32.832-34.977 56.912-35.152l184.736-1.344-58.080-342.192c-5.52-29.408 10.16-58.721 37.76-70.528 8.224-3.536 16.863-5.216 25.392-5.216 20.112 0 36.641 9.408 49.041 26.4l359.056 514.304c14.16 19.408 16.225 45.057 5.36 66.433-10.864 21.408-32.832 34.977-56.912 35.152l-184.736 0.32 57.456 300.88c1.2 4.848 1.824 9.872 1.824 15.056 0 34.624-27.568 62.848-62.064 63.968-0.768 0.032-1.52 0.032-2.271 0.032v0z" />
<glyph unicode="&#xf10d;" glyph-name="facebook" d="M592 0v468.011h155.989l24.021 182.016h-180.011v116.011c0 52.011 13.995 88.021 89.984 88.021h96v162.005c-16 4.011-73.984 8.021-139.989 8.021-139.989 0-233.984-84.011-233.984-240v-134.016h-157.995v-182.016h157.995v-468.011z" />
<glyph unicode="&#xf10e;" glyph-name="fire" d="M508.416 0.72c-241.248 0-412.369 167.281-412.369 397.777 0 122.368 73.376 254.192 76.496 259.712 6.368 11.344 18.88 17.504 31.935 16.063 12.912-1.664 23.536-10.976 26.88-23.567 0.192-0.752 19.969-74.752 46.064-115.84 17.536-27.648 35.313-47.185 55.313-60.753-13.536 58.656-23.904 146.912-7.024 237.472 46.336 248.576 241.984 308.048 250.368 310.448 10.784 3.088 22.225 0.32 30.433-7.151 8.192-7.504 11.937-18.752 9.809-29.664-0.32-1.744-32.624-175.776 35.936-324.064 6.224-13.472 14.912-29.12 24.256-44.784 2.656 21.504 6.784 44.368 13.12 66.561 25.152 87.968 90.192 118 92.944 119.216 10.848 4.944 23.504 3.313 32.88-4.031 9.344-7.376 13.84-19.28 11.68-31.008-0.336-2.16-9.408-62.032 41.536-146.944 46-76.672 59.28-126.368 59.28-221.681 0-230.48-176.432-397.761-419.536-397.761zM195.695 556.32c-17.568-44.304-35.665-103.246-35.665-157.806 0-193.408 144.192-333.776 348.368-333.776 206 0 355.536 140.368 355.536 333.776 0 83.536-10.32 122.32-50.16 188.752-26.624 44.368-39.776 84.256-46.064 116-6.336-10.256-12.224-22.784-16.527-37.872-19.504-68.192-14.592-147.937-14.527-148.753 0.944-14.272-7.744-27.473-21.248-32.257s-28.528-0.064-36.816 11.663c-2.4 3.408-59.313 83.968-84.4 138.24-52.096 112.592-51.216 234.336-45.904 304.464-52.72-30.72-133.664-99.344-159.664-238.912-25.312-135.808 23.872-271.6 24.4-272.943 4.256-11.088 2-23.664-5.808-32.592-7.84-8.88-19.904-12.815-31.536-10.031-3.968 0.976-94.032 24.399-152.336 116.287-10.416 16.464-19.76 36.384-27.648 55.76z" />
<glyph unicode="&#xf10f;" glyph-name="help" horiz-adv-x="597" d="M256 106.667c0-23.564 19.103-42.667 42.667-42.667s42.667 19.103 42.667 42.667c0 23.564-19.103 42.667-42.667 42.667s-42.667-19.103-42.667-42.667zM533.333 1024h-469.333c-36.267 0-64-27.733-64-64v-896c0-36.267 27.733-64 64-64h469.333c36.267 0 64 27.733 64 64v896c0 36.267-27.733 64-64 64zM554.667 64c0-12.8-8.533-21.333-21.333-21.333h-469.333c-12.8 0-21.333 8.533-21.333 21.333v106.667h512v-106.667zM554.667 213.333h-512v597.333h512v-597.333zM554.667 853.333h-512v106.667c0 12.8 8.533 21.333 21.333 21.333h469.333c12.8 0 21.333-8.533 21.333-21.333v-106.667zM341.333 938.667h-85.333c-12.8 0-21.333-8.533-21.333-21.333s8.533-21.333 21.333-21.333h85.333c12.8 0 21.333 8.533 21.333 21.333s-8.533 21.333-21.333 21.333zM298.667 364.8c106.667 0 192 87.467 192 192s-87.467 192-192 192-192-87.467-192-192 85.333-192 192-192zM418.133 426.667c-32-27.733-72.533-44.8-119.467-44.8-44.8 0-87.467 17.067-119.467 44.8 0 2.133 0 2.133 0 4.267 0 0 0 0 0 0-4.267 14.933 4.267 29.867 17.067 34.133 0 0 2.133 0 2.133 0l57.6 14.933c10.667-10.667 25.6-17.067 40.533-17.067h2.133c14.933 0 27.733 6.4 38.4 17.067l57.6-14.933c0 0 2.133 0 2.133 0 14.933-4.267 21.333-19.2 17.067-34.133 0 0 0 0 0 0 2.133-2.133 4.267-4.267 4.267-4.267zM221.867 610.133c4.267 42.667 42.667 74.667 85.333 70.4 36.267-4.267 66.133-34.133 70.4-70.4-6.4 2.133-12.8 2.133-19.2 0-4.267 32-34.133 55.467-68.267 51.2-27.733-4.267-49.067-25.6-51.2-51.2v0c-6.4 2.133-12.8 2.133-17.067 0zM238.933 588.8v-25.6c0-4.267-4.267-8.533-8.533-8.533s-8.533 4.267-8.533 8.533v25.6c0 4.267 4.267 8.533 8.533 8.533s8.533-4.267 8.533-8.533zM377.6 588.8v0-25.6c0-4.267-4.267-8.533-8.533-8.533s-8.533 4.267-8.533 8.533v25.6c0 4.267 4.267 8.533 8.533 8.533s8.533-4.267 8.533-8.533zM296.533 648.533c25.6 2.133 46.933-19.2 49.067-44.8 0-2.133 0-2.133 0-4.267v-44.8c0-8.533-6.4-14.933-17.067-17.067h-8.533c-4.267 10.667-14.933 17.067-25.6 12.8s-17.067-14.933-12.8-25.6c4.267-10.667 14.933-17.067 25.6-12.8 6.4 2.133 10.667 6.4 12.8 12.8h8.533c2.133 0 4.267 0 6.4 0-2.133-2.133-2.133-4.267-4.267-6.4s-2.133-4.267-2.133-6.4v-8.533c0 0 0 0 0 0v-14.933c-8.533-8.533-19.2-12.8-29.867-12.8-12.8 0-23.467 4.267-32 12.8v23.467c0 2.133 0 4.267-2.133 6.4-6.4 8.533-10.667 21.333-12.8 32v51.2c0 25.6 19.2 46.933 44.8 46.933zM307.2 531.2c0-4.267-2.133-6.4-6.4-6.4s-6.4 2.133-6.4 6.4c0 4.267 2.133 6.4 6.4 6.4s6.4-2.133 6.4-6.4zM298.667 736c98.133 0 177.067-78.933 177.067-177.067 0-44.8-17.067-85.333-44.8-117.333-2.133 17.067-12.8 32-32 36.267l-25.6 6.4c0 0 0 0 0 0v0l-29.867 6.4v19.2c6.4 8.533 10.667 21.333 12.8 32 10.667-6.4 25.6-2.133 32 8.533 2.133 4.267 2.133 6.4 2.133 10.667v38.4c0 51.2-40.533 91.733-91.733 91.733s-91.733-40.533-91.733-91.733v-38.4c0-12.8 10.667-23.467 23.467-23.467 4.267 0 6.4 0 10.667 2.133 2.133-10.667 6.4-21.333 12.8-32v-17.067l-57.6-12.8c-17.067-4.267-29.867-19.2-32-36.267-27.733 32-44.8 72.533-44.8 117.333 2.133 96 81.067 177.067 179.2 177.067z" />
<glyph unicode="&#xf110;" glyph-name="home" d="M1016.7 510.64l-480.369 503.168c-6.032 6.304-14.368 9.84-23.088 9.84-8.704 0-17.040-3.552-23.088-9.84l-482.848-503.152c-12.24-12.752-11.809-32.992 0.943-45.248 12.752-12.224 32.992-11.872 45.248 0.944l43.008 44.832v-478.832c0-17.68 14.336-32 32-32h223.552c17.632 0 31.935 14.256 32 31.904l1.008 319.664h254.992v-319.568c0-17.68 14.32-32 32-32h223.472c17.68 0 32 14.32 32 32v478.992l42.992-45.040c6.288-6.528 14.688-9.84 23.089-9.84 7.968 0 15.968 2.944 22.16 8.944 12.736 12.224 13.152 32.48 0.929 45.231zM863.535 569.184v-504.831h-159.472v319.552c0 17.68-14.32 32-32 32h-318.88c-17.632 0-31.935-14.256-32-31.904l-1.008-319.664h-159.664v504.848c0 2.64-0.416 5.168-1.008 7.632l353.76 368.624 351.424-368.208c-0.688-2.592-1.152-5.264-1.152-8.048z" />
<glyph unicode="&#xf111;" glyph-name="instagram" d="M1021.995 918.016c-6.016 59.989-56.021 105.984-118.016 105.984-262.016 0-523.989 0-786.005 0-8.021 0-13.995 0-22.016-2.005-57.984-11.989-96-59.989-96-118.016 0-130.005 0-262.016 0-392.021s0-260.011 0-392.021c0-6.016 0-11.989 0-20.011 8.021-56.021 57.984-100.011 116.011-100.011 264.021 0 525.995 0 790.016 0 6.016 0 9.984 0 13.995 0 57.984 8.021 102.016 57.984 102.016 116.011 0 264.021 0 528 0 792.021 0 2.005 0 6.016 0 9.984zM708.011 866.005c0 22.016 18.005 40.021 40.021 40.021 38.016 0 77.995 0 116.011 0 24.021 0 40.021-18.005 40.021-40.021 2.005-40.021 2.005-77.995 0-118.016 0-22.016-16-40.021-38.016-40.021-20.011 0-40.021 0-59.989 0s-38.016 0-57.984 0c-22.016 0-40.021 18.005-40.021 40.021 0 40.021 0 77.995 0 118.016zM512 708.011c107.989 0 196.011-88.021 196.011-196.011s-88.021-196.011-196.011-196.011c-109.995 0-198.016 88.021-198.016 196.011s88.021 196.011 198.016 196.011zM902.016 585.984c0-141.995 2.005-283.989 2.005-427.989 0-22.016-16-40.021-40.021-40.021-235.989 0-473.984 0-708.011 0-24.021 0-43.989 18.005-43.989 41.984 0 141.995 0 283.989 0 425.984 0 2.005 0-2.005 0 8.021 32 0 64 0 93.995 0-20.011-82.005-9.984-155.989 25.984-228.011 27.989-54.016 70.016-96 121.984-125.995 104.021-59.989 232.021-56.021 331.989 9.984 56.021 38.016 96 88.021 120.021 152.021 24.021 61.995 25.984 120.021 9.984 192 29.995 0 54.016 0 86.016 0 0-9.984 0-6.016 0-8.021z" />
<glyph unicode="&#xf112;" glyph-name="menu" horiz-adv-x="1479" d="M45.507 39.822v172.567h1388.087v-172.567h-1388.087zM45.507 424.772v174.46h1388.087v-174.46h-1388.087zM45.507 811.618v172.563h1388.087v-172.563h-1388.087z" />
<glyph unicode="&#xf113;" glyph-name="options" d="M899.4 385.8h-27.198c-2.2 0.6-4.2 1.6-6.4 2-57.2 8.8-102.4 56.399-106.2 112.199-4.4 62.4 31.199 115.2 89.199 132.4 7.6 2.2 15.6 3.8 23.399 5.8h27.2c1.8-0.6 3.399-1.6 5.399-1.8 52.8-8.6 93-46.6 104.4-98.6 0.8-4 2-8 3-12v-27.2c-0.6-1.8-1.6-3.6-1.8-5.399-8.4-52-45.4-91.6-96.801-103.6-5-1.2-9.6-2.601-14.199-3.801zM130.603 638.2l27.202-0.001c2.2-0.6 4.2-1.6 6.4-1.8 57.6-9 102.6-56.8 106.199-113.2 4-62.2-32-114.8-90.2-131.8-7.4-2.2-15-3.8-22.4-5.6h-27.2c-1.8 0.6-3.399 1.6-5.199 2-52 9.6-86 39.8-102.2 90.2-2.2 6.6-3.4 13.6-5.2 20.399v27.2c0.6 1.8 1.6 3.6 1.8 5.399 8.6 52.2 45.399 91.601 96.8 103.601 4.8 1.2 9.399 2.4 13.999 3.601zM501.404 638.199h27.199c2.2-0.6 4.2-1.6 6.4-2 57.4-9 103.601-58.6 106.001-114.6 2.8-63-35.2-116.4-93.8-131.4-6.2-1.6-12.4-3-18.601-4.4h-27.2c-2.2 0.6-4.2 1.6-6.4 2-57.4 8.8-103.601 58.6-106.2 114.6-3 63 35.2 116.4 93.8 131.4 6.4 1.6 12.601 3 18.801 4.4z" />
<glyph unicode="&#xf114;" glyph-name="pdf" horiz-adv-x="830" d="M608.604 343.909c17.389-3.864 34.777-3.864 50.234 1.932 27.049 5.796 48.302 28.981 46.37 57.962 1.932 19.321-9.66 50.234-59.894 59.894-17.389 1.932-34.777 3.864-52.166 3.864-13.525 0-28.981-1.932-42.506-3.864-5.796-1.932-9.66-1.932-15.457-1.932-13.525 13.525-25.117 28.981-34.777 44.438-25.117 34.777-48.302 71.487-69.555 110.128-3.864 5.796-7.728 13.525-11.592 19.321 1.932 11.592 5.796 23.185 7.728 38.642l3.864 17.389c9.66 32.845 11.592 67.623 5.796 102.4-9.66 42.506-38.642 52.166-52.166 50.234v0c-7.728 0-38.642-5.796-50.234-48.302-7.728-27.049-7.728-56.030 0-83.079 7.728-28.981 19.321-57.962 34.777-83.079-7.728-30.913-17.389-59.894-27.049-88.875-13.525-40.574-19.321-57.962-23.185-67.623-3.864-11.592-3.864-11.592-11.592-28.981l-1.932-1.932c-9.66-25.117-21.253-48.302-34.777-71.487-15.457-7.728-30.913-15.457-52.166-27.049-44.438-27.049-77.283-44.438-88.875-75.351-5.796-15.457-21.253-56.030 11.592-83.079 11.592-9.66 25.117-15.457 40.574-15.457s28.981 5.796 40.574 15.457c13.525 13.525 25.117 30.913 34.777 50.234 3.864 5.796 7.728 13.525 13.525 23.185 19.321 38.642 32.845 65.691 34.777 67.623 0 1.932 1.932 3.864 1.932 3.864 9.66 3.864 19.321 7.728 30.913 11.592 30.913 13.525 63.758 25.117 96.604 34.777l17.389 5.796c13.525 5.796 23.185 7.728 34.777 11.592 13.525 5.796 23.185 7.728 32.845 11.592 9.66-7.728 17.389-15.457 28.981-25.117 19.321-17.389 38.642-28.981 59.894-36.709zM595.079 417.328c13.525 0 28.981 0 42.506-3.864 5.796 0 13.525-3.864 15.457-9.66v-9.66c-1.932-1.932-5.796-1.932-7.728-1.932-7.728-1.932-17.389-1.932-25.117-1.932-13.525 5.796-27.049 13.525-38.642 23.185 5.796 3.864 9.66 3.864 13.525 3.864zM227.985 280.151c-5.796-9.66-9.66-17.389-13.525-23.185-5.796-13.525-13.525-25.117-23.185-36.709-3.864-1.932-11.592-1.932-15.457 1.932-1.932 1.932-5.796 3.864 3.864 27.049 5.796 11.592 28.981 27.049 50.234 40.574 0-3.864 0-7.728-1.932-9.66v0zM384.483 782.491c0 3.864 1.932 5.796 3.864 9.66 1.932-1.932 1.932-3.864 1.932-7.728 5.796-23.185 3.864-48.302-1.932-73.419-1.932 3.864-1.932 5.796-1.932 9.66-7.728 19.321-7.728 40.574-1.932 61.826v0zM471.426 442.445c-9.66-3.864-19.321-5.796-32.845-11.592l-17.389-5.796c-30.913-9.66-48.302-15.457-77.283-27.049 3.864 7.728 5.796 15.457 9.66 23.185l1.932 1.932c7.728 19.321 7.728 19.321 13.525 32.845 1.932 9.66 9.66 27.049 23.185 65.691 5.796 15.457 9.66 30.913 13.525 44.438 17.389-30.913 36.709-59.894 56.030-88.875 9.66-11.592 15.457-21.253 23.185-30.913-5.796-1.932-9.66-1.932-13.525-3.864v0zM828.86 150.702v602.808c0 0-1.932 1.932-1.932 1.932 0 1.932-1.932 1.932-1.932 1.932s-1.932 1.932-1.932 1.932c0 0-1.932 1.932-1.932 1.932s-1.932 0-1.932 1.932c0 0 0 0 0 0v0l-249.238 251.17c-1.932 1.932-1.932 1.932-3.864 3.864 0 0 0 1.932-1.932 1.932 0 0 0 0 0 0-1.932 0-1.932 1.932-1.932 1.932s-1.932 1.932-1.932 1.932c1.932 0 0 0 0 0h-409.6c-83.079 0-150.702-67.623-150.702-150.702 0 0 0 0 0 0v-722.596c0-83.079 65.691-150.702 148.77-150.702 0 0 0 0 0 0h531.321c83.079 0 150.702 67.623 148.77 150.702 1.932 0 1.932 0 0 0v0 0zM150.702 973.766h380.619v-164.226c0-48.302 40.574-86.943 88.875-86.943h162.294v-571.894c0-54.098-42.506-100.468-98.536-100.468 0 0 0 0-1.932 0h-531.321c-56.030 1.932-98.536 46.37-98.536 100.468v722.596c-1.932 54.098 42.506 100.468 98.536 100.468v0zM620.196 772.83c-21.253 0-36.709 15.457-38.642 36.709 0 0 0 0 0 1.932v125.585l164.226-164.226h-125.585z" />
<glyph unicode="&#xf115;" glyph-name="people" d="M746 188.72l-201.471 111.602c74.88 58.912 95.216 174.688 95.216 239.601v135.12c0 89.472-118.88 189.12-238.288 189.12-119.376 0-241.408-99.664-241.408-189.12v-135.12c0-59.024 24.976-178.433 100.624-239.089l-206.672-112.112s-54-24.064-54-54.064v-81.088c0-29.84 24.224-54.063 54-54.063h692c29.808 0 54.031 24.224 54.031 54.063v81.088c0 31.808-54.032 54.063-54.032 54.063zM736.033 63.505h-672.031v57.216c4.592 3.344 11.008 7.216 16.064 9.536 1.504 0.688 3.008 1.408 4.432 2.225l206.688 112.096c18.848 10.224 31.344 29.184 33.248 50.527s-7.008 42.256-23.712 55.664c-53.664 43.024-76.656 138.32-76.656 189.152v135.12c0 45.968 86.656 125.12 177.408 125.12 92.432 0 174.288-78.064 174.288-125.12v-135.12c0-50.128-15.568-145.84-70.784-189.28-16.912-13.312-26-34.224-24.224-55.664 1.808-21.44 14.256-40.528 33.12-50.849l201.472-111.6c1.776-0.976 4.032-2.031 5.904-2.848 4.72-2 10.527-5.344 14.783-8.288v-57.888zM969.97 348.064l-204.465 111.601c74.88 58.912 98.224 174.688 98.224 239.601v135.12c0 89.472-121.872 190.128-241.28 190.128-77.6 0-156.943-42.192-203.119-96.225 26.336-1.632 55.376-1.664 80.464-9.664 33.712 26.256 76.368 41.872 122.656 41.872 92.432 0 177.279-79.056 177.279-126.128v-135.12c0-50.128-18.56-145.84-73.775-189.28-16.912-13.312-26-34.224-24.224-55.664 1.808-21.44 14.256-40.528 33.12-50.849l204.464-111.6c1.776-0.976 4.032-2.031 5.904-2.848 4.72-2 10.527-5.344 14.783-8.288v-56.912h-129.184c19.504-14.72 25.408-35.775 32.977-63.999h106.192c29.808 0 54.031 24.224 54.031 54.063v80.096c-0.016 31.84-54.048 54.096-54.048 54.096z" />
<glyph unicode="&#xf116;" glyph-name="shield" d="M907.952 879.52c-11.872 11.088-27.503 17.217-43.663 17.217-1.472 0-2.943-0.064-4.399-0.16-0.912-0.064-11.185-0.688-27.28-0.688-26.656 0-78.688 1.808-127.969 13.936-63.664 15.632-137.12 88.16-158.496 102.464-10.752 7.184-23.152 10.783-35.568 10.783-12.368 0-24.784-3.6-35.536-10.752-2.592-1.744-79.504-84.032-154.752-102.496-49.248-12.128-102.288-13.936-128.912-13.936-16.096 0-26.368 0.624-27.376 0.688-1.408 0.096-2.816 0.16-4.225 0.16-16.192 0-31.872-6.16-43.776-17.28-12.944-12.096-20.32-29.008-20.32-46.72v-160.032c0-591.632 387.12-667.808 403.568-670.783 3.744-0.656 7.536-1.008 11.313-1.008s7.601 0.336 11.313 1.008c16.432 2.976 406.399 79.151 406.399 670.783v160.032c0.032 17.744-7.344 34.688-20.319 46.784zM864.305 672.704c0-544.912-353.714-607.777-353.714-607.777s-350.88 62.88-350.88 607.776v160.032s12.096-0.848 31.68-0.848c33.568 0 90.032 2.464 144.16 15.775 88.624 21.744 175.024 111.408 175.024 111.408s90.256-89.664 178.784-111.408c54.192-13.312 109.681-15.775 143.249-15.775 19.568 0 31.681 0.848 31.681 0.848s0.016-20.352 0.016-160.031h0.001zM647.599 677.759c-12.496 12.496-32.769 12.496-45.249 0l-90.512-90.512-90.512 90.512c-12.496 12.496-32.769 12.496-45.265 0s-12.496-32.769 0-45.249l90.512-90.512-90.512-90.512c-12.496-12.481-12.496-32.753 0-45.249s32.769-12.496 45.265 0l90.512 90.512 90.512-90.512c12.481-12.496 32.753-12.496 45.249 0s12.496 32.769 0 45.249l-90.512 90.512 90.512 90.512c12.496 12.481 12.496 32.753 0 45.249z" />
<glyph unicode="&#xf117;" glyph-name="twitter" d="M920.021 720c0-8.021 0-18.005 0-25.984 0-278.016-212.011-598.016-598.016-598.016-118.016 0-230.016 34.005-322.005 93.995 16-2.005 34.005-2.005 50.005-2.005 98.005 0 189.995 32 262.016 89.984-91.989 0-169.984 61.995-198.016 146.005 13.995-4.011 25.984-4.011 40.021-4.011 20.011 0 38.016 2.005 56.021 6.016-96 20.011-168.021 105.984-168.021 205.995 0 2.005 0 2.005 0 4.011 27.989-16 59.989-25.984 93.995-25.984-56.021 36.011-93.995 102.016-93.995 173.995 0 38.016 11.989 73.984 29.995 105.984 102.016-128 258.005-212.011 432-219.989-4.011 16-6.016 32-6.016 48 0 116.011 93.995 210.005 210.005 210.005 61.995 0 116.011-25.984 153.984-66.005 48 9.984 93.995 25.984 134.016 50.005-16-48-50.005-89.984-91.989-116.011 41.984 6.016 82.005 16 120.021 34.005-27.989-41.984-64-80-104.021-109.995z" />
<glyph unicode="&#xf118;" glyph-name="whatsapp" d="M870.4 874.667c46.933-46.933 85.333-102.4 115.2-166.4s38.4-128 38.4-192c0-89.6-21.333-174.933-68.267-251.733s-110.933-140.8-187.733-183.467c-76.8-46.933-162.133-68.267-256-68.267-85.333 0-166.4 21.333-243.2 59.733l-268.8-72.533 72.533 264.533c-46.933 76.8-68.267 162.133-68.267 251.733s21.333 174.933 68.267 251.733 106.667 140.8 183.467 183.467 166.4 72.533 256 72.533c68.267 0 132.267-12.8 192-38.4 64-25.6 119.467-64 166.4-110.933zM512 93.867c76.8 0 145.067 17.067 213.333 55.467s119.467 89.6 157.867 153.6c38.4 64 59.733 136.533 59.733 213.333 0 55.467-12.8 106.667-34.133 162.133-21.333 51.2-55.467 98.133-93.867 136.533s-85.333 72.533-136.533 93.867-110.933 29.867-166.4 29.867c-76.8 0-145.067-17.067-213.333-55.467s-115.2-89.6-153.6-153.6-55.467-136.533-55.467-213.333c0-81.067 21.333-153.6 68.267-221.867l8.533-17.067-42.667-153.6 162.133 42.667 12.8-12.8c64-38.4 136.533-59.733 213.333-59.733zM742.4 409.6l8.533-4.267c12.8-4.267 17.067-8.533 17.067-12.8s0-8.533 0-21.333c0-12.8-4.267-25.6-8.533-38.4s-17.067-25.6-38.4-38.4c-17.067-12.8-34.133-21.333-51.2-21.333-21.333-4.267-42.667-4.267-59.733 0-21.333 4.267-51.2 17.067-89.6 34.133-76.8 34.133-149.333 98.133-213.333 187.733l-4.267 4.267c-34.133 46.933-51.2 89.6-51.2 132.267 0 38.4 12.8 72.533 42.667 102.4h4.267c12.8 8.533 21.333 17.067 34.133 17.067h25.6c4.267 0 12.8 0 12.8-4.267 4.267-4.267 8.533-8.533 12.8-17.067l38.4-93.867c4.267-8.533 4.267-17.067 4.267-21.333-8.533-17.067-17.067-29.867-29.867-42.667-8.533-4.267-12.8-12.8-12.8-17.067s0-8.533 4.267-12.8c21.333-38.4 46.933-72.533 76.8-93.867 21.333-17.067 51.2-34.133 98.133-55.467 12.8-4.267 21.333-4.267 25.6 4.267 21.333 21.333 34.133 38.4 42.667 51.2 4.267 4.267 8.533 8.533 12.8 8.533s8.533 0 17.067-4.267c8.533-4.267 34.133-17.067 81.067-42.667z" />
</font>
</defs>
</svg>
